.

» » Синий трактор: Полная коллекция (2014-2017) WEBDLRip 720p скачать торрент бесплатно

Синий трактор: Полная коллекция (2014-2017) WEBDLRip 720p скачать торрент бесплатно

Опубликовано: 21-02-2018, 11:00, просмотров: 1362

0

Синий трактор: Полная коллекция (2014-2017) WEBDLRip 720p
Детально о кино
Русское название: Синий трактор: Полная коллекция
Создали в: 2014-2017
Категория жанра: Семейный, Музыкальный, Компьютерная анимация, Детский, Развивающий
Главный режиссер: Артур Днепровский
Возраст: 1+(для любой зрительской аудитории)

Сюжет фильма

Синий трактор – такое название получил детский музыкальный канал, рассчитанный на самых маленьких детишек в возрасте до трех лет. Он поддерживает развивающее и обучающее направление, поэтому данные ролики позволят малышам не только весело провести свой досуг, но и получить от этого немалую пользу. Ведь эти веселые и запоминающиеся песенки, которыми заполнен данный канал, посвящены самым разнообразным темам. Так Синий трактор поведает детишкам о фруктах и технике, познакомит их с алфавитом, числами, геометрическими фигурами, названиями красок, животными и прочими предметами, находящимися вокруг них. Кроме того, он позволит юным зрителям узнать про такие понятия как низко, высоко, далеко и близко, а также научит их распознавать зверушек по звукам, которые они издают.
В общем, этот забавный Синий трактор своими зажигательными песенками не только поднимает настроение, но и обучает малышей, ведь в таком формате они лучше усваивают любую информацию. Кроме того, в этих роликах нет ничего лишнего – ни слишком ярких красок, ни замысловатых сюжетов, ни жестокости, все очень просто и лаконично, но при этом данный мультфильм очень интересен, так что малыши не только досмотрят его до конца, но и захотят продолжения.
Снималось в: Россия
Киностудия: Артем Колпаков
Время просмотра: ~00: 04: 00 серия
Перевод текста: Не требуется
Файл
Кодек для видео: AVC/AAC
Качество фильма: WEB-DLRip 720p
Информация о видео: AVC/H.264, 1280x720, ~715 kbps
Информация о звуке: AAC, 2 ch, 126 kbps
Субтитры: Отсутствуют
Скриншоты
MI
Формат : MPEG-4
Профиль формата : Base Media/Version 2
Идентификатор кодека : mp42 (isom/mp42)
Размер файла : 24, 6 Мбайт
Продолжительность : 4 м. 3 с.
Режим общего битрейта : Переменный
Общий поток : 845 Кбит/сек
Дата кодирования : UTC 2017-12-23 04: 30: 22
Дата пометки : UTC 2017-12-23 04: 30: 22
gsst : 0
gstd : 243902
Видео
Идентификатор : 1
Формат : AVC
Формат/Информация : Advanced Video Codec
Профиль формата : Main@L3.1
Настройки формата : CABAC/3 Ref Frames
Параметр CABAC формата : Да
Параметр RefFrames формата : 3 кадра
Идентификатор кодека : avc1
Идентификатор кодека/Информация : Advanced Video Coding
Продолжительность : 4 м. 3 с.
Битрейт : 715 Кбит/сек
Ширина : 1280 пикселей
Высота : 720 пикселей
Соотношение сторон : 16: 9
Режим частоты кадров : Постоянный
Частота кадров : 29, 970 (30000/1001) кадров/сек
Цветовое пространство : YUV
Субдискретизация насыщенности : 4: 2: 0
Битовая глубина : 8 бит
Тип развёртки : Прогрессивная
Бит/(Пиксели*Кадры) : 0.026
Размер потока : 20, 8 Мбайт (85%)
Заголовок : ISO Media file produced by Google Inc. Created on: 12/22/2017.
Дата кодирования : UTC 2017-12-23 04: 30: 22
Дата пометки : UTC 2017-12-23 04: 30: 22
Цветовой диапазон : Limited
Основные цвета : BT.709
Характеристики трансфера : BT.709
Коэффициенты матрицы : BT.709
Аудио
Идентификатор : 2
Формат : AAC
Формат/Информация : Advanced Audio Codec
Профиль формата : LC
Идентификатор кодека : mp4a-40-2
Продолжительность : 4 м. 3 с.
Вид битрейта : Переменный
Битрейт : 126 Кбит/сек
Каналы : 2 канала
Расположение каналов : Front: L R
Частота : 44, 1 КГц
Частота кадров : 43, 066 кадра/сек (1024 SPF)
Метод сжатия : С потерями
Размер потока : 3, 65 Мбайт (15%)
Заголовок : ISO Media file produced by Google Inc. Created on: 12/22/2017.
Дата кодирования : UTC 2017-12-23 04: 30: 22
Дата пометки : UTC 2017-12-23 04: 30: 22

Размер скачиваемого торрента: 1.74 GB (1868741346 Bytes)

Синий трактор: Полная коллекция (2014-2017) WEBDLRip 720p

Категория:

Уважаемый посетитель, Вы зашли на сайт как незарегистрированный пользователь.
Рекомендуем Вам зарегистрироватся или авторизироватся.
Информация
Посетители, находящиеся в группе Гости, не могут оставлять комментарии в данной новости.